设为首页收藏本站

楚天音画网

 找回密码
 中文注册

QQ登录

只需一步,快速开始

搜索
查看: 668|回复: 22

【专辑】马小郡 - 声色动情(怡人唱片 1∶1母盘直刻版)[WAV/CUE]

[复制链接]
发表于 2018-9-16 12:09:42 | 显示全部楼层 |阅读模式
专辑介绍:

    爱过才发现爱情不是那么美,爱情是毒药?是寂寞?是泪水?是飞蛾扑火?走过情路婉转,收获的是淡定从容,就算被寂寞侵蚀,也能点燃这团寂寞,给心灵来取暖。一场声色的盛宴,燃烧了寂寞,潸然情动。
  Loved only to find that love is not so beautiful, love is the poison? Is it lonely? Tears? Is a moth to a flame ? Traveled road conditions mildly, the harvest is very calm and relaxed, even lonely erosion, can ignite mass silence Lonely, heating to the heart. A sensual feast, burning loneliness, was moved to love moving.
  你从我梦里走过,原来现实那么单薄,在无人的角落,谁又知道那真正的难过?拒绝甜蜜的诱惑,我用沉默来面对。
  You came from my dream realized the reality is so thin, in the absence of the corner, who knows what is truly Sad? Reject the sweet temptation, I use silence to face.

    13年发烧乐坛一个全新的声音,有着温暖、纯粹、慵懒而浓郁的嗓音特质,不过分甜美,不过分低沉,就那样恰到好处,在耳边轻轻吟唱出别样的风格和气质。缤纷错落的乐器将音乐铺陈的精致而美妙,不喧宾夺主,只是完美的点缀气氛,将人声衬托。一张人声与乐器发烧级的声色盛宴专辑。
  The 2012 fever music a whole new sound, has a warm, pure, lazy and full-bodied voice characteristics Quality, not overly sweet, not overly deep, as just right, singing softly in the ear of a different kind Style and temperament. Scattered colorful musical instruments music lay out the delicate and wonderful, not overwhelming, Just the perfect embellishment atmosphere, the vocal set off. A voice and instrument grade fever sensual feast designed Series.


  怡人母盘直刻技术:
  整个世界唱片工业中,普通CD生产工序都是在进入工厂后,经过多次的格式转换和大批量的压制的。出来的成品CD的音质、音色、频宽、动态上都会有大幅度的损耗,保真度将损耗在30%以上,这是以往唱片工业一直无法解决的问题。
  怡人唱片的1:1母盘直刻CD,是引进世界级模拟MASTERING设备HHB-882,配合专业的日本THAT'S CD母带级CDR,通过1:1的专业母盘刻录流程,一分一秒纯手工打造,减少了工厂的繁琐格式转换,解决了世界唱片工业的损耗问题,告别了音乐的工业化时代,率先进入音乐的体验式时代。


专辑曲目:

01.爱是你给我的毒 Love is the poison you give me
02.爱情不如我想象的美 Love is not so beautiful as I imagine
03.相爱的泪水 Tears of love
04.寂寞犯的错 The mistake that loneliness makes
05.致青春 To Youth
06.三寸天堂 Three inches paradise
07.爱情的秋天 The fall in love
08.想你想得很辛苦 Missing you makes me tired
09.你不配 You do not deserve
10.男人不坏女人不爱 A girl always falls in love with a bad guy
11.多想把你留住 How much I want to hold you beside myself
12.嫁给有钱人 Marry the Rich








Exact Audio Copy V0.99 prebeta 4 from 23. January 2008

EAC 抓取日志文件从3. 一月 2015, 5:48

马小郡 / 声色动情

使用驱动器  :PHILIPS DVD+-RW DVD8631   Adapter: 0  ID: 0

读取模式     : 保护
使用精确流   : 是
废除音频缓冲 : 是
使用 C2 指针 : 否

读取偏移校正                   : 618
读取 Lead-In 和 Lead-Out       : 否
用静音填充抓取中丢失偏移的采样 : 是
去除首尾静音块                 : 否
在 CRC 计算中使用了空样本      : 是
已用接口                       : Win NT 及 2000 本地 Win32 接口

所用输出格式 : 内部 WAV 函数
样本格式     : 44.100 Hz;16 Bit;立体声


被抓轨 CD 的 TOC

     音轨 |   开始   |   长度   | 起始扇区 | 结尾扇区
    --------------------------------------------------
       1  |  0:00.00 |  4:32.00 |       0  |   20399  
       2  |  4:32.00 |  4:59.00 |   20400  |   42824  
       3  |  9:31.00 |  5:01.00 |   42825  |   65399  
       4  | 14:32.00 |  4:25.00 |   65400  |   85274  
       5  | 18:57.00 |  4:17.00 |   85275  |  104549  
       6  | 23:14.00 |  4:59.00 |  104550  |  126974  
       7  | 28:13.00 |  4:18.00 |  126975  |  146324  
       8  | 32:31.00 |  3:42.00 |  146325  |  162974  
       9  | 36:13.00 |  4:02.00 |  162975  |  181124  
      10  | 40:15.00 |  4:06.00 |  181125  |  199574  
      11  | 44:21.00 |  4:39.00 |  199575  |  220499  
      12  | 49:00.00 |  3:48.00 |  220500  |  237599  


范围状态及错误

已选择范围

     文件名 C:\Users\Administrator\Desktop\马小郡 - 声色动情(怡人唱片 1∶1母盘直刻版)[自抓]\马小郡 - 声色动情.wav

     峰值电平 100.0 %
     范围质量 100.0 %
     复制 CRC 284E5542
     复制成功

没有错误发生

状态报告结尾



REM GENRE Pop
REM DATE 2014
REM DISCID B80C600C
PERFORMER "马小郡"
TITLE "声色动情(怡人唱片 1∶1母盘直刻版)"
FILE "马小郡 - 声色动情.wav" WAVE
  TRACK 01 AUDIO
    TITLE "爱是你给我的毒"
    PERFORMER "马小郡"
    FLAGS DCP
    INDEX 01 00:00:00
  TRACK 02 AUDIO
    TITLE "爱情不如我想象的美"
    PERFORMER "马小郡"
    FLAGS DCP
    INDEX 00 04:28:10
    INDEX 01 04:32:00
  TRACK 03 AUDIO
    TITLE "相爱的泪水"
    PERFORMER "马小郡"
    FLAGS DCP
    INDEX 00 09:27:10
    INDEX 01 09:31:00
  TRACK 04 AUDIO
    TITLE "寂寞犯的错"
    PERFORMER "马小郡"
    FLAGS DCP
    INDEX 00 14:28:10
    INDEX 01 14:32:00
  TRACK 05 AUDIO
    TITLE "致青春"
    PERFORMER "马小郡"
    FLAGS DCP
    INDEX 00 18:53:10
    INDEX 01 18:57:00
  TRACK 06 AUDIO
    TITLE "三寸天堂"
    PERFORMER "马小郡"
    FLAGS DCP
    INDEX 00 23:10:10
    INDEX 01 23:14:00
  TRACK 07 AUDIO
    TITLE "爱情的秋天"
    PERFORMER "马小郡"
    FLAGS DCP
    INDEX 00 28:09:10
    INDEX 01 28:13:00
  TRACK 08 AUDIO
    TITLE "想你想得很辛苦"
    PERFORMER "马小郡"
    FLAGS DCP
    INDEX 00 32:27:10
    INDEX 01 32:31:00
  TRACK 09 AUDIO
    TITLE "你不配"
    PERFORMER "马小郡"
    FLAGS DCP
    INDEX 00 36:09:10
    INDEX 01 36:13:00
  TRACK 10 AUDIO
    TITLE "男人不坏女人不爱"
    PERFORMER "马小郡"
    FLAGS DCP
    INDEX 00 40:11:10
    INDEX 01 40:15:00
  TRACK 11 AUDIO
    TITLE "多想把你留住"
    PERFORMER "马小郡"
    FLAGS DCP
    INDEX 00 44:17:10
    INDEX 01 44:21:00
  TRACK 12 AUDIO
    TITLE "嫁给有钱人"
    PERFORMER "马小郡"
    FLAGS DCP
    INDEX 00 48:56:10
    INDEX 01 49:00:00



下载地址:
游客,如果您要查看本帖隐藏内容请回复


提取码:

包内三证齐全,带扫描大图。



本帖子中包含更多资源

您需要 登录 才可以下载或查看,没有帐号?中文注册

x

评分

参与人数 4金钱 +80 收起 理由
孙少桐 + 20 精彩资源!
呼吸 + 20 精美作品!
八卦掌付 + 20 精美作品!
楚云飞 + 20 精彩资源!

查看全部评分

回复

使用道具 举报

发表于 2018-9-16 12:58:11 | 显示全部楼层




发表于 2018-9-16 13:03:32 | 显示全部楼层
一杯清茶、一幅墨染飘香,一曲绕梁的琴声、、、
一路上有你,心念如梦,记录在楚天音画网,谢谢分享快乐,祝好~
发表于 2018-9-16 13:39:23 | 显示全部楼层
马小郡的音乐不错,好听,她的声音蛮特别,值得收藏。
发表于 2018-9-16 15:09:14 | 显示全部楼层
一杯清茶、一幅墨染飘香,一曲绕梁的琴声、、、
发表于 2018-9-16 15:09:26 | 显示全部楼层
聆听着美妙的歌曲、欣赏着优美的的图画、品味着高雅的意境,是一种惬意的享受!
发表于 2018-9-16 15:10:49 | 显示全部楼层
谢谢老师给大家带来美的享受和美的陶冶,祝幸福安好!
发表于 2018-9-16 21:04:56 | 显示全部楼层
地址发错了伽菲珈而 - 响往(柏菲唱片 开盘母带直刻
发表于 2018-9-16 21:13:03 | 显示全部楼层
马小郡的音乐不错,好听,她的声音蛮特别,值得收藏。
发表于 2018-9-16 21:17:17 | 显示全部楼层
曹京 发表于 2018-9-16 21:04
地址发错了伽菲珈而 - 响往(柏菲唱片 开盘母带直刻

没有错,帅哥你搞错了吧?
您需要登录后才可以回帖 登录 | 中文注册

本版积分规则

QQ|申请友链|楚天音画网 ( 鄂ICP备16017867-1号 |鄂公网安备42011702000120号   

GMT+8, 2019-11-13 05:06

Powered by Discuz! X3.2

© 2001-2013 Comsenz Inc.

快速回复 返回顶部 返回列表