设为首页收藏本站

楚天音画网

 找回密码
 中文注册

QQ登录

只需一步,快速开始

搜索
热搜: 音画 音乐 素材
查看: 2392|回复: 44

【新碟原抓】孙露 2018《十大华语金曲Ⅱ》WAV+CUE

[复制链接]
发表于 2018-6-9 19:40:24 | 显示全部楼层 |阅读模式





本帖子中包含更多资源

您需要 登录 才可以下载或查看,没有帐号?中文注册

x

评分

参与人数 5金钱 +70 收起 理由
李莫愁 + 10 谢谢支持!
呼吸 + 20 精美作品!
小不点 + 10 精美作品!
孙少桐 + 20 精美作品!
岩新新 + 10 精美作品!

查看全部评分

回复

使用道具 举报

 楼主| 发表于 2018-6-9 19:40:25 | 显示全部楼层






专辑名称:十大华语金曲II
专辑艺人:孙露
出版社:广东音像出版社有限公司
发行公司:广州乐升文化传播有限公司
ISBN:9787798415704
发行时间:2018年6月5日
资源格式:正版原抓WAV+CUE

专辑介绍:
全新制作,深情演唱!

磁性而温婉,强势而柔和,孙露的歌声有令人着迷的张力。
无论是天生独特的嗓音,或是对于歌曲意境的深度领悟和演绎,孙露都达到了的地步。
继《十大华语金曲》发行以来获得无数好评后,
如今,孙露再度带来惊世之作《十大华语金曲II》。

专辑收录了12首经典歌曲,网罗了更为有深度和感染力的歌曲,
每一首歌曲都脍炙人口又朗朗上口。

风格上,专辑延续《十大华语金曲》的故事性和深情,
以多元的音乐元素描摹动人的故事,探讨更为深刻的主题,
带来听觉和灵魂的风暴。

为了呈现全新的感觉,在编曲及配乐上带来了超强的突破,
且经由孙露全新演绎,在情感表达上更能让听众产生共鸣。
在聆听间,跟随孙露曼妙的歌声,检阅那些过往和曾经。

专辑曲目:
01. 思念谁
02. 云河
03. 有一天我会
04. 听说爱情回来过
05. 别哭我最爱的人
06. 送别
07. 昨夜小楼又东风
08. 想你想哭了
09. 感恩的心
10. 祝你一路顺风
11. 亲密爱人
12. 太多
=================================
1、本音乐仅供鉴赏试听、若喜欢,请购买正版CD。
2、版权归唱片公司所有,严禁用于任何商业或盈利用途。
3、请下载后24小时内删除。

游客,如果您要查看本帖隐藏内容请回复




本帖子中包含更多资源

您需要 登录 才可以下载或查看,没有帐号?中文注册

x

评分

参与人数 2金钱 +40 收起 理由
呼吸 + 20 精美作品!
孙少桐 + 20 精美作品!

查看全部评分

 楼主| 发表于 2018-6-9 19:42:03 | 显示全部楼层
Exact Audio Copy V1.0 beta 3 from 29. August 2011

EAC 抓取日志文件从9. 六月 2018, 18:21

孙露 / 十大华语金曲Ⅱ

使用驱动器  :HL-DT-STDVDROM DH18NS40   Adapter: 0  ID: 0

读取模式      : 可靠Secure
使用精确流     : 是
清空音频缓存    : 是
使用 C2 指示器 : 否

读取偏移校正:               : 6
读取 Lead-In 和 Lead-Out : 否
用静音填充抓取中丢失偏移的采样       : 是
去除首尾静音块               : 否
在CRC 计算中使用了空样本       : 是
已用接口                  : Win NT 及 2000 本地 Win32 接口

所用输出模式: : 内部 WAV 函数
样本格式    : 44.100 Hz; 16 Bit; 立体声


已抓取 CD 的 TOC

     音轨 |    起始    |    长度    |  起始扇区  |  结束扇区  
    --------------------------------------------
      1 |  0:00.00 |  4:33.50 |      0 |  20524
      2 |  4:33.50 |  3:46.23 |  20525 |  37497
      3 |  8:19.73 |  4:06.58 |  37498 |  56005
      4 | 12:26.56 |  5:27.27 |  56006 |  80557
      5 | 17:54.08 |  4:18.12 |  80558 |  99919
      6 | 22:12.20 |  3:29.69 |  99920 | 115663
      7 | 25:42.14 |  3:50.15 | 115664 | 132928
      8 | 29:32.29 |  4:52.73 | 132929 | 154901
      9 | 34:25.27 |  4:38.42 | 154902 | 175793
     10 | 39:03.69 |  4:25.58 | 175794 | 195726
     11 | 43:29.52 |  5:47.70 | 195727 | 221821
     12 | 49:17.47 |  5:22.53 | 221822 | 246024


范围状态及错误

已选择范围

     文件名 C:\Users\Administrator\Desktop\孙露 - 十大华语金曲Ⅱ.wav

     峰值电平 100.0 %
     抓取速度 8.7 X
     范围质量 100.0 %
     复制 CRC 947DA503
     复制成功

没有错误发生


AccurateRip 摘要

音轨  1  在数据库中不存在
音轨  2  在数据库中不存在
音轨  3  在数据库中不存在
音轨  4  在数据库中不存在
音轨  5  在数据库中不存在
音轨  6  在数据库中不存在
音轨  7  在数据库中不存在
音轨  8  在数据库中不存在
音轨  9  在数据库中不存在
音轨 10  在数据库中不存在
音轨 11  在数据库中不存在
音轨 12  在数据库中不存在

没有任何音轨在 AccurateRip 数据库中有记录

状态报告结尾
 楼主| 发表于 2018-6-9 19:44:08 | 显示全部楼层
PERFORMER "孙露"
TITLE "十大华语金曲Ⅱ"
REM DISCID A30CD00C
REM COMMENT "ExactAudioCopy v1.0b3"
FILE "孙露 - 十大华语金曲Ⅱ.wav" WAVE
  TRACK 01 AUDIO
    TITLE "思念谁"
    PERFORMER "孙露"
    REM GENRE Pop
    REM DATE 2018
    FLAGS DCP
    INDEX 01 00:00:00
  TRACK 02 AUDIO
    TITLE "云河"
    PERFORMER "孙露"
    REM GENRE Pop
    REM DATE 2018
    FLAGS DCP
    INDEX 00 04:31:50
    INDEX 01 04:33:50
  TRACK 03 AUDIO
    TITLE "有一天我会 "
    PERFORMER "孙露"
    REM GENRE Pop
    REM DATE 2018
    FLAGS DCP
    INDEX 00 08:17:73
    INDEX 01 08:19:73
  TRACK 04 AUDIO
    TITLE "听说爱情回来过"
    PERFORMER "孙露"
    REM GENRE Pop
    REM DATE 2018
    FLAGS DCP
    INDEX 00 12:24:56
    INDEX 01 12:26:56
  TRACK 05 AUDIO
    TITLE "别哭我最爱的人"
    PERFORMER "孙露"
    REM GENRE Pop
    REM DATE 2018
    FLAGS DCP
    INDEX 00 17:52:08
    INDEX 01 17:54:08
  TRACK 06 AUDIO
    TITLE "送别"
    PERFORMER "孙露"
    REM GENRE Pop
    REM DATE 2018
    FLAGS DCP
    INDEX 00 22:10:20
    INDEX 01 22:12:20
  TRACK 07 AUDIO
    TITLE "昨夜小楼又东风 "
    PERFORMER "孙露"
    REM GENRE Pop
    REM DATE 2018
    FLAGS DCP
    INDEX 00 25:40:14
    INDEX 01 25:42:14
  TRACK 08 AUDIO
    TITLE "想你想哭了"
    PERFORMER "孙露"
    REM GENRE Pop
    REM DATE 2018
    FLAGS DCP
    INDEX 00 29:30:29
    INDEX 01 29:32:29
  TRACK 09 AUDIO
    TITLE "感恩的心"
    PERFORMER "孙露"
    REM GENRE Pop
    REM DATE 2018
    FLAGS DCP
    INDEX 00 34:23:27
    INDEX 01 34:25:27
  TRACK 10 AUDIO
    TITLE "祝你一路顺风"
    PERFORMER "孙露"
    REM GENRE Pop
    REM DATE 2018
    FLAGS DCP
    INDEX 00 39:01:69
    INDEX 01 39:03:69
  TRACK 11 AUDIO
    TITLE "亲密爱人"
    PERFORMER "孙露"
    REM GENRE Pop
    REM DATE 2018
    FLAGS DCP
    INDEX 00 43:27:52
    INDEX 01 43:29:52
  TRACK 12 AUDIO
    TITLE "太多"
    PERFORMER "孙露"
    REM GENRE Pop
    REM DATE 2018
    FLAGS DCP
    INDEX 00 49:15:47
    INDEX 01 49:17:47

评分

参与人数 2金钱 +40 收起 理由
呼吸 + 20 精美作品!
孙少桐 + 20 精彩资源!

查看全部评分

发表于 2018-6-9 19:59:12 | 显示全部楼层
欣赏精彩制作!
发表于 2018-6-9 23:14:52 | 显示全部楼层
原抓孙露《十大华语金曲2》资源棒棒哒,楚帅辛苦了,周末快乐!
发表于 2018-6-9 23:15:52 | 显示全部楼层
孙露2018年最新的CD,也是她第24张音乐专辑,支持露露。
发表于 2018-6-9 23:16:33 | 显示全部楼层
好听的音乐,精美的音乐帖子,播放器制作真漂亮,聆听。。。。。
发表于 2018-6-10 08:44:54 | 显示全部楼层
孙露2018最新碟片,欣赏欣赏。
发表于 2018-6-10 08:45:56 | 显示全部楼层
好听,原抓资源,支持楚大,周末好。
您需要登录后才可以回帖 登录 | 中文注册

本版积分规则

QQ|申请友链|楚天音画网 ( 鄂ICP备16017867号-1,鄂ICP备16017867号-2 |鄂公网安备42011702000120号   

GMT+8, 2019-3-25 20:02 , Processed in 0.065884 second(s), 26 queries .

Powered by Discuz! X3.2

© 2001-2013 Comsenz Inc.

快速回复 返回顶部 返回列表