设为首页收藏本站

楚天音画网--音画作品展示,音乐鉴赏收藏,文学写作欣赏

 找回密码
 中文注册

QQ登录

只需一步,快速开始

搜索
查看: 1238|回复: 19

【音乐快递】姚璎格《梦草原[24K纯金]》限量版WAV+CUE

[复制链接]

签到天数: 162 天

[LV.7]常住居民III

发表于 2019-12-13 12:50:27 | 显示全部楼层 |阅读模式

专辑名称:梦草原[24k金碟]限量版
专辑艺人:姚璎格
出版社:  广东音像出版社
发行公司:风林唱片
发行时间:2019年12月
资源格式:WAV+CUE

专辑介绍:
一个藴藏已久的梦,一段寻梦草原的旅程,
一次焕然一新的制作,一场超越自我的圆梦。
这张唱片是格格藴藏已久的梦,
一个烙印在她孩子时挥之不去的草原旋律的记忆!
她说:当时还是小学生的我,一听到“蓝蓝的天空上飘着那白云,
白云底下盖着雪白的羊群.........”
那美妙悠长的旋律便深刻在心底了!

这张唱片是草原专辑,所选的12首作品都是带有草原风格的歌曲,
格格是德德玛老师的徒弟,是德德玛老师鼓励格格出一张草原歌曲专辑,
所以,唱片里面有4首德德玛老师的经典曲目,也是格格致敬德德玛老师的作品。
姚璎格,发烧女中音,亲切,醇厚,自然,。。。。。。
  专辑曲目:
01.牧歌
02.天边
03.草原夜色美
04.父亲的草原母亲的河
05.雕花的马鞍
06.鸿雁
07.呼伦贝尔大草原
08.乌兰巴托的夜
09.我和草原有个约定
10.草原之夜
11.蓝色的蒙古高原
12.美丽的草原我的家
=============
百度网盘链接:
游客,如果您要查看本帖隐藏内容请回复


游客,如果您要查看本帖隐藏内容请回复

本帖子中包含更多资源

您需要 登录 才可以下载或查看,没有帐号?中文注册

x

评分

参与人数 3金钱 +45 收起 理由
呼吸 + 15 精美作品!
admin + 15 精彩资源!
楚云飞 + 15 精美作品!

查看全部评分

回复

使用道具 举报

签到天数: 193 天

[LV.7]常住居民III

发表于 2019-12-13 13:19:12 | 显示全部楼层
格格,姚璎格年末最新专辑,值得珍藏,经典资源,感谢高山帅哥无私分享,加精鼓励!
虽说帅哥编辑帖子还不够规范,这不是问题,以后慢慢就熟悉了,
待会我整理一下,重新编辑,再次谢谢辣~





REM DATE 2019.12
REM DISCID DE0F340F
REM COMMENT ExactAudioCopy v1.3
PERFORMER "姚璎格"
TITLE "姚璎格《梦草原 限量版》"
FILE "CDImage.wav" WAVE
  TRACK 01 AUDIO
    PERFORMER "姚璎格"
    TITLE "01.牧歌"
    INDEX 01 00:00:00
  TRACK 02 AUDIO
    PERFORMER "姚璎格"
    TITLE "02.天边"
    INDEX 01 04:40:24
  TRACK 03 AUDIO
    PERFORMER "姚璎格"
    TITLE "03.草原夜色美"
    INDEX 01 09:18:22
  TRACK 04 AUDIO
    PERFORMER "姚璎格"
    TITLE "04.父亲的草原母亲的河"
    INDEX 01 13:36:04
  TRACK 05 AUDIO
    PERFORMER "姚璎格"
    TITLE "05.雕花的马鞍"
    INDEX 01 19:36:15
  TRACK 06 AUDIO
    PERFORMER "姚璎格"
    TITLE "06.鸿雁"
    INDEX 01 23:17:38
  TRACK 07 AUDIO
    PERFORMER "姚璎格"
    TITLE "07呼伦贝尔大草原"
    INDEX 01 28:04:30
  TRACK 08 AUDIO
    PERFORMER "姚璎格"
    TITLE "08.乌兰巴托的夜晚"
    INDEX 01 32:44:30
  TRACK 09 AUDIO
    PERFORMER "姚璎格"
    TITLE "09.我和草原有个约会"
    INDEX 01 37:38:31
  TRACK 10 AUDIO
    PERFORMER "姚璎格"
    TITLE "10.草原之夜"
    INDEX 01 41:22:13
  TRACK 11 AUDIO
    PERFORMER "姚璎格"
    TITLE "11.蓝色的蒙古高原"
    INDEX 01 45:45:26
  TRACK 12 AUDIO
    PERFORMER "姚璎格"
    TITLE "12.美丽的草原我的家"
    INDEX 01 50:08:58

本帖子中包含更多资源

您需要 登录 才可以下载或查看,没有帐号?中文注册

x

签到天数: 169 天

[LV.7]常住居民III

发表于 2019-12-13 13:32:55 | 显示全部楼层
格格的新专,一定支持!

签到天数: 193 天

[LV.7]常住居民III

发表于 2019-12-13 13:58:59 | 显示全部楼层




已经整理编辑好辣,重新上传整轨资源,链接附上!

签到天数: 196 天

[LV.7]常住居民III

发表于 2019-12-13 14:04:27 | 显示全部楼层
收藏了,好专辑,感谢楼主分享!CUE如有错误复制下段粘贴覆盖即可...

REM DATE 2019.12
REM DISCID DE0F340F
REM COMMENT ExactAudioCopy v1.3
PERFORMER "姚璎格"
TITLE "姚璎格《梦草原 限量版》"
FILE "CDImage.wav" WAVE

签到天数: 191 天

[LV.7]常住居民III

发表于 2019-12-13 15:03:13 | 显示全部楼层
好感性的声音!感谢分享!

签到天数: 193 天

[LV.7]常住居民III

发表于 2019-12-13 16:29:45 | 显示全部楼层
熊样 发表于 2019-12-13 14:04
收藏了,好专辑,感谢楼主分享!CUE如有错误复制下段粘贴覆盖即可...

REM DATE 2019.12

是的,匆忙之间,没来及书写~

签到天数: 182 天

[LV.7]常住居民III

发表于 2019-12-13 17:29:35 | 显示全部楼层
都是经典的草原旋律,hifi制作,值得细品。谢谢楼主分享

签到天数: 7 天

[LV.3]偶尔看看II

发表于 2019-12-13 21:23:27 | 显示全部楼层
聆听着美妙的歌曲,欣赏着优美的的图画,品味着高雅的意境是一种惬意的享受.

签到天数: 7 天

[LV.3]偶尔看看II

发表于 2019-12-13 21:24:31 | 显示全部楼层
谢谢帅哥分享精彩,祝开心每天!
您需要登录后才可以回帖 登录 | 中文注册

本版积分规则

QQ|申请友链|鄂ICP备16017867号|楚天音画网   |鄂公网安备42011702000120号   

GMT+8, 2020-6-5 10:43

Powered by Discuz! X3.2

© 2001-2013 Comsenz Inc.

快速回复 返回顶部 返回列表