设为首页收藏本站

楚天音画网--音画作品展示,音乐鉴赏收藏,文学写作欣赏

 找回密码
 中文注册

QQ登录

只需一步,快速开始

搜索
查看: 400|回复: 31

【发烧女声】陈瑞《剪爱HQII》限量编号版WAV+CUE

[复制链接]

签到天数: 370 天

[LV.9]以站为家II

发表于 2021-1-10 17:54:07 | 显示全部楼层 |阅读模式
购买主题 已有 2 人购买  本主题需向作者支付 100 金钱 才能浏览
回复

使用道具 举报

签到天数: 370 天

[LV.9]以站为家II

 楼主| 发表于 2021-1-10 17:54:35 | 显示全部楼层




评分

参与人数 2金钱 +20 收起 理由
遥思惆怅 + 10 精美作品!
执念 + 10 精美作品!

查看全部评分

签到天数: 370 天

[LV.9]以站为家II

 楼主| 发表于 2021-1-10 17:55:38 | 显示全部楼层
正版CD原抓资源,请勿外传,本资源仅供本站会员鉴赏试听,收藏~
解压密码:http://www.ctyhlt.com/

签到天数: 370 天

[LV.9]以站为家II

 楼主| 发表于 2021-1-10 17:56:33 | 显示全部楼层
  1. Exact Audio Copy V1.1 from 23. June 2015

  2. EAC 抓取日志文件从8. 一月 2021, 15:52

  3. 陈瑞 / 剪爱HQII

  4. 使用驱动器  :TEAC    CD-W54E   Adapter: 1  ID: 0

  5. 读取模式      : 可靠Secure
  6. 使用精确流     : 是
  7. 清空音频缓存    : 是
  8. 使用 C2 指示器 : 否

  9. 读取偏移校正:               : 685
  10. 读取 Lead-In 和 Lead-Out : 否
  11. 用静音填充抓取中丢失偏移的采样       : 是
  12. 去除首尾静音块               : 否
  13. 在CRC 计算中使用了空样本       : 是
  14. 已用接口                  : Win NT 及 2000 本地 Win32 接口

  15. 所用输出模式: : 内部 WAV 函数
  16. 样本格式    : 44.100 Hz; 16 Bit; 立体声


  17. 已抓取 CD 的 TOC

  18.      音轨 |    起始    |    长度    |  起始扇区  |  结束扇区  
  19.     --------------------------------------------
  20.       1 |  0:00.00 |  3:40.01 |      0 |  16500
  21.       2 |  3:40.01 |  3:04.14 |  16501 |  30314
  22.       3 |  6:44.15 |  3:47.49 |  30315 |  47388
  23.       4 | 10:31.64 |  3:25.14 |  47389 |  62777
  24.       5 | 13:57.03 |  4:05.17 |  62778 |  81169
  25.       6 | 18:02.20 |  5:42.20 |  81170 | 106839
  26.       7 | 23:44.40 |  4:53.72 | 106840 | 128886
  27.       8 | 28:38.37 |  4:36.09 | 128887 | 149595
  28.       9 | 33:14.46 |  3:58.13 | 149596 | 167458
  29.      10 | 37:12.59 |  4:14.13 | 167459 | 186521


  30. 范围状态及错误

  31. 已选择范围

  32.      文件名 D:\音乐\陈瑞 - 剪爱HQII.wav

  33.      峰值电平 100.0 %
  34.      抓取速度 2.5 X
  35.      范围质量 100.0 %
  36.      复制 CRC 90FD2C99
  37.      复制成功

  38. 没有错误发生

  39. 状态报告结尾


复制代码

签到天数: 1 天

[LV.1]初来乍到

发表于 2021-1-10 19:37:15 | 显示全部楼层
好声音,听不够,很喜欢陈瑞的歌曲,用心的演唱诉说真挚的情感,聆听有故事的声音,无法忘怀久久回味..

签到天数: 1 天

[LV.1]初来乍到

发表于 2021-1-10 19:37:36 | 显示全部楼层
一杯香茗,一缕墨香,一曲悠扬,一幅画卷,一份祝福:遥祝安好!感谢精彩分享!

签到天数: 328 天

[LV.8]以站为家I

发表于 2021-1-11 11:38:57 | 显示全部楼层
又见陈瑞的新专辑,感谢香帅的分享。

评分

参与人数 1金钱 +10 收起 理由
楚云飞 + 10 谢谢支持!

查看全部评分

签到天数: 32 天

[LV.5]常住居民I

发表于 2021-1-11 12:13:36 | 显示全部楼层

听故事里的忧伤,听忧伤里的坚强。一路上的坎坎坷坷,悲欢离合都化成一首首经典的情歌。画面渲染的非常有气氛,大手笔震撼作品,赏图听歌,欣赏问好.

评分

参与人数 1金钱 +10 收起 理由
楚云飞 + 10 谢谢支持!

查看全部评分

签到天数: 32 天

[LV.5]常住居民I

发表于 2021-1-11 12:33:05 | 显示全部楼层
楚云飞 发表于 2021-1-10 17:55
正版CD原抓资源,请勿外传,本资源仅供本站会员鉴赏试听,收藏~
解压密码:http://www.ctyhlt.com/

陈瑞最新专辑《剪爱》极有特色,收录10首广为流传的曲目,首首经典,仿佛置身于音乐之中,美了、醉了.......超级享受的精美大碟,这感觉真棒!谢谢老师送的红利。立即购买收藏了。

签到天数: 32 天

[LV.5]常住居民I

发表于 2021-1-11 12:36:05 | 显示全部楼层
精彩资源,经典恒久远,一碟永珍藏........再次感谢,隔屏问安!祝老师新周快乐!
您需要登录后才可以回帖 登录 | 中文注册

本版积分规则

楚天音画社区|鄂ICP备16017867号|楚天音画社区   |鄂公网安备42011702000120号   

GMT+8, 2021-1-24 02:32

Powered by Discuz! X3.2

© 2001-2013 Comsenz Inc.

快速回复 返回顶部 返回列表